<?xml version="1.0" standalone="no"?>
<!DOCTYPE svg PUBLIC "-//W3C//DTD SVG 1.1//EN" "http://www.w3.org/Graphics/SVG/1.1/DTD/svg11.dtd" >
<svg xmlns="http://www.w3.org/2000/svg">
<metadata>
This is a custom SVG webfont generated by Font Squirrel.
</metadata>
<defs>
<font id="webfontqwzMaTVL" horiz-adv-x="1024" >
<font-face units-per-em="2048" ascent="1536" descent="-512" />
<missing-glyph horiz-adv-x="500" />
<glyph unicode=" " />
<glyph unicode="A" horiz-adv-x="1705" d="M186 63v54v136v180q0 97 1 182t1 147v72q0 16 -7 23t-15 11t-21 4h-133q-12 0 -12 9q-1 2 -1 4t1 4v86l776 457l789 -451v-84q0 -18 -9 -23q-4 -4 -8 -2h-202q-14 0 -19.5 -6t-9.5 -12q-4 -8 -4 -16v-744q0 -35 -1 -53t-3 -29q-2 -10 -4 -12h-101q-8 0 -10 14.5t-4 32.5 q-2 23 -2 49v152q0 59 1 115.5t1 78.5q0 23 -9.5 34t-19.5 16q-12 6 -26 6h-115q-47 0 -90 1t-64 1q-20 0 -31.5 -9.5t-15.5 -19.5q-6 -12 -6 -29v-331q0 -41 -16.5 -63.5t-34.5 -33.5q-23 -12 -51 -14h-461q-25 0 -38 10t-18.5 22.5t-6.5 21.5zM186 1397q0 -2 1 10t20 12 h147q4 0 11 -2q10 -6 10 -18v-154q-4 0 -34 -17l-65 -38l-90 -55v213v49z" />
<glyph unicode="B" horiz-adv-x="1705" d="M317 1010q0 88 29 164.5t79 135t116.5 92.5t144.5 34q76 0 142.5 -34t115.5 -92.5t78 -135t29 -164.5t-29 -166t-78 -136.5t-115.5 -92t-142.5 -33.5q-78 0 -144.5 33.5t-116.5 92t-79 136.5t-29 166zM715 0h-695q-2 0 -11 2t-9 18v138q72 121 137 219q27 41 57 80l55 69 q26 31 48 50.5t39 19.5h55q14 0 29 -6q12 -4 26.5 -16.5t28.5 -36.5q27 -49 45.5 -60.5t38.5 -11.5q10 0 30.5 -1t43.5 -3q25 -2 55 -2q29 0 51 2q20 2 41 3t31 1q20 0 38.5 11t45.5 61q12 25 27.5 37t27.5 16q14 6 29 6h55q14 0 37 -19.5t49.5 -50t55.5 -69.5l57 -80 q66 -98 137 -219v-138q0 -16 -9 -18t-11 -2h-635z" />
<glyph unicode="C" horiz-adv-x="1705" d="M895 528l46 49q22 22 24 25q2 2 23.5 -8t47.5 -25q31 -16 68 -39l328 -325q-2 -12 -11 -31q-8 -16 -24.5 -38.5t-46.5 -53.5q-31 -31 -53.5 -47.5t-39.5 -24.5q-18 -8 -28 -10l-150 147l-111 110q-52 52 -67 69q-16 14 -28.5 36.5t-22.5 45.5q-12 25 -23 53zM0 901 q0 111 42 208t113.5 170t169 115t207.5 42q111 0 208.5 -42t169 -115t113.5 -170t42 -208t-42 -208t-113.5 -168.5t-169 -113.5t-208.5 -42t-208 42t-168.5 113.5t-113.5 168.5t-42 208zM203 901q0 -68 25.5 -128t70.5 -104t104.5 -70t126.5 -26q68 0 127.5 26t104.5 70 t70.5 104.5t25.5 127.5q0 68 -25.5 128.5t-70.5 105.5t-104.5 70.5t-127.5 25.5t-127 -25.5t-104 -70.5t-70.5 -105.5t-25.5 -128.5z" />
<glyph unicode="&#xa0;" />
<glyph unicode="&#x2000;" horiz-adv-x="716" />
<glyph unicode="&#x2001;" horiz-adv-x="1435" />
<glyph unicode="&#x2002;" horiz-adv-x="716" />
<glyph unicode="&#x2003;" horiz-adv-x="1435" />
<glyph unicode="&#x2004;" horiz-adv-x="477" />
<glyph unicode="&#x2005;" horiz-adv-x="358" />
<glyph unicode="&#x2006;" horiz-adv-x="237" />
<glyph unicode="&#x2007;" horiz-adv-x="237" />
<glyph unicode="&#x2008;" horiz-adv-x="178" />
<glyph unicode="&#x2009;" horiz-adv-x="286" />
<glyph unicode="&#x200a;" horiz-adv-x="77" />
<glyph unicode="&#x2013;" d="M205 512v205h614v-205h-614z" />
<glyph unicode="&#x2014;" horiz-adv-x="2048" d="M205 512v205h1638v-205h-1638z" />
<glyph unicode="&#x202f;" horiz-adv-x="286" />
<glyph unicode="&#x205f;" horiz-adv-x="358" />
<glyph unicode="&#xe000;" horiz-adv-x="500" d="M0 0v0v0v0v0z" />
</font>
</defs>
</svg>
